Ash vs Evil Dead S03E10

Posted By: Tavaz
720p (HD) / WEBRip IMDb
Ash vs Evil Dead S03E10

Ash vs Evil Dead S03E10
WEBRip | MKV | 1280x720 | English | H264 @ 3350 kbps | E-AC-3 @ 640 kbps | 29 min 30 s | 859 MiB
Subtitles: English
Genre: Action, Comedy, Fantasy, Horror

Bruce Campbell reprises his role as Ash Williams, an aging lothario and chainsaw-handed monster hunter who’s spent the last three decades avoiding maturity, and the terrors of the Evil Dead. But when a Deadite plague threatens to destroy all of mankind, he’s forced to face his demons — both metaphorical and literal.

5429c0298f1c41dd8983eaa64a2f2b43.mkv (859.5 MB)



General
Complete name : ./5429c0298f1c41dd8983eaa64a2f2b43.mkv
Format : Matroska
Format version : Version 4 / Version 2
File size : 859 MiB
Duration : 29 min 30 s
Overall bit rate mode : Variable
Overall bit rate : 4 072 kb/s
Encoded date : UTC 2018-04-29 00:03:10
Writing application : mkvmerge v20.0.0 (master: 2421163 / deflate: b81f064) [X86_64]
Writing library : libebml v1.3.5 + libmatroska v1.4.8

Video
ID : 1
Format : AVC
Format/Info : Advanced Video Codec
Format profile : High@L3.1
Format settings : CABAC / 5 Ref Frames
Format settings, CABAC : Yes
Format settings, RefFrames : 5 frames
Codec ID : V_MPEG4/ISO/AVC
Duration : 29 min 30 s
Bit rate mode : Variable
Bit rate : 3 351 kb/s
Maximum bit rate : 4 500 kb/s
Width : 1 280 pixels
Height : 720 pixels
Display aspect ratio : 16:9
Frame rate mode : Constant
Frame rate : 23.976 (24000/1001) FPS
Color space : YUV
Chroma subsampling : 4:2:0
Bit depth : 8 bits
Scan type : Progressive
Bits/(Pixel*Frame) : 0.152
Stream size : 707 MiB (82%)
Language : English
Default : Yes
Forced : No
Color range : Limited
Color primaries : BT.709
Transfer characteristics : BT.709
Matrix coefficients : BT.709

Audio
ID : 2
Format : E-AC-3
Format/Info : Enhanced Audio Coding 3
Format settings, Endianness : Big
Codec ID : A_EAC3
Duration : 29 min 30 s
Bit rate mode : Constant
Bit rate : 640 kb/s
Channel(s) : 6 channels
Channel positions : Front: L C R, Side: L R, LFE
Sampling rate : 48.0 kHz
Frame rate : 187.500 FPS (256 SPF)
Compression mode : Lossy
Stream size : 135 MiB (16%)
Language : English
Service kind : Complete Main
Default : Yes
Forced : No

Text #1
ID : 3
Format : UTF-8
Codec ID : S_TEXT/UTF8
Codec ID/Info : UTF-8 Plain Text
Title : English
Language : English
Default : No
Forced : No

Text #2
ID : 4
Format : UTF-8
Codec ID : S_TEXT/UTF8
Codec ID/Info : UTF-8 Plain Text
Title : English (SDH)
Language : English
Default : No
Forced : No





Ash vs Evil Dead S03E10


Ash vs Evil Dead S03E10


Ash vs Evil Dead S03E10


Ash vs Evil Dead S03E10


Ash vs Evil Dead S03E10

All episodes

SitemapSmallville streaming | Allwin (80) | الالكترونيات الاستهلاكية الأخرى Gallipoli 1. Sezon | CSR Racing 2 | tf2 wallpaper