Ash vs Evil Dead S02E03

Posted By: Tavaz
1080p (FullHD) / WEB-DL IMDb
Ash vs Evil Dead S02E03

Ash vs Evil Dead S02E03
WEB-DL | MKV | 1920x1080 | English | H265 @ 7942 kbps | E-AC-3 @ 640 kbps | 31 min 2 s | 1.86 GiB
Subtitles: English
Genre: Action, Comedy, Fantasy, Horror

Bruce Campbell reprises his role as Ash Williams, an aging lothario and chainsaw-handed monster hunter who’s spent the last three decades avoiding maturity, and the terrors of the Evil Dead. But when a Deadite plague threatens to destroy all of mankind, he’s forced to face his demons — both metaphorical and literal.

Ash.vs.Evil.Dead.S02E03.Last.Call.1080p.AMZN.WEB-DL.DD.5.1.H.265-SiGMA.mkv (1.9 GB)



General
Unique ID : 302401364388446993130009182923587477038 (0xE3806260D31AE9B5F22B5E7CABD65E2E)
Complete name : ./Ash.vs.Evil.Dead.S02E03.Last.Call.1080p.AMZN.WEB-DL.DD.5.1.H.265-SiGMA.mkv
Format : Matroska
Format version : Version 4 / Version 2
File size : 1.86 GiB
Duration : 31 min 2 s
Overall bit rate : 8 585 kb/s
Encoded date : UTC 2018-07-01 12:19:51
Writing application : mkvmerge v24.0.0 ('Beyond The Pale') 64-bit
Writing library : libebml v1.3.6 + libmatroska v1.4.9

Video
ID : 1
Format : HEVC
Format/Info : High Efficiency Video Coding
Format profile : Main@L4@Main
Codec ID : V_MPEGH/ISO/HEVC
Duration : 31 min 2 s
Bit rate : 7 943 kb/s
Width : 1 920 pixels
Height : 1 080 pixels
Display aspect ratio : 16:9
Frame rate mode : Constant
Frame rate : 23.976 (24000/1001) FPS
Standard : NTSC
Color space : YUV
Chroma subsampling : 4:2:0
Bit depth : 8 bits
Bits/(Pixel*Frame) : 0.160
Stream size : 1.72 GiB (93%)
Default : Yes
Forced : No
Color range : Limited
Color primaries : BT.709
Transfer characteristics : BT.709
Matrix coefficients : BT.709

Audio
ID : 2
Format : E-AC-3
Format/Info : Enhanced Audio Coding 3
Format settings, Endianness : Big
Codec ID : A_EAC3
Duration : 31 min 2 s
Bit rate mode : Constant
Bit rate : 640 kb/s
Channel(s) : 6 channels
Channel positions : Front: L C R, Side: L R, LFE
Sampling rate : 48.0 kHz
Frame rate : 187.500 FPS (256 SPF)
Compression mode : Lossy
Stream size : 142 MiB (7%)
Language : English
Service kind : Complete Main
Default : Yes
Forced : No

Text
ID : 3
Format : UTF-8
Codec ID : S_TEXT/UTF8
Codec ID/Info : UTF-8 Plain Text
Duration : 28 min 51 s
Bit rate : 87 b/s
Count of elements : 703
Stream size : 18.4 KiB (0%)
Language : English
Default : No
Forced : No





Ash vs Evil Dead S02E03


Ash vs Evil Dead S02E03


Ash vs Evil Dead S02E03


Ash vs Evil Dead S02E03


Ash vs Evil Dead S02E03

All episodes

SitemapJune 19, 2018 | J.P. Valenti | Descargar Watch now | Más detalles | Terra X: Unsere Wlder (3)