Alain Bashung - Osez Josephine (1991/2013) [Official Digital Download 24/96]

Posted By: Pisulik
Alain Bashung - Osez Josephine (1991/2013) [Official Digital Download 24/96]

Alain Bashung - Osez Josephine (1991/2013)
FLAC (tracks) 24-bit/96 kHz | Time - 61:46 minutes | 1,37 GB
Studio Master, Official Digital Download | Artwork: Front cover

Released in 1991, Osez Josephine is the eight studio album by the great French singer/songwriter Alain Bashung. It is chock-full of acoustic rootsy blues, country, and swampy tracks delivered in an immediate, raw manner, without much overdubbing; so little, in fact, it sounds like it was recorded live from the floor in the studio. Standout cuts include the title track, "Volutes," and a very original interpretation of the Moody Blues' "Nights in White Satin."

Tracklist:

01. J'écume (Album Version)
02. Volutes (Remix Single 92)
03. Happe (Album Version)
04. Well All Right (Album Version)
05. Les grands voyageurs (Album Version)
06. Blue Eyes Crying In The Rain (Album Version)
07. Osez Joséphine (Album Version)
08. Kalabougie (Album Version)
09. She Belongs To Me (Album Version)
10. Madame rêve (Album Version)
11. Nights In White Satin (Album Version)
12. That's All Right Mama (Album Version)
13. Les amants d'un jour (Rough Mix Memphis)
14. Les Grands Voyageurs (Remix)
15. Osez Joséphine (Archive)
16. Kalabougie (Version Kalabouge)

foobar2000 1.3.7 / Dynamic Range Meter 1.1.1
log date: 2018-07-03 15:27:28

––––––––––––––––––––––––––––––––––––––––
Analyzed: Alain Bashung / Osez Josephine
––––––––––––––––––––––––––––––––––––––––

DR Peak RMS Duration Track
––––––––––––––––––––––––––––––––––––––––
DR7 0.00 dB -9.49 dB 3:43 01-J'écume (Album Version)
DR7 -0.01 dB -8.74 dB 3:24 02-Volutes (Remix Single 92)
DR6 0.00 dB -7.93 dB 3:05 03-Happe (Album Version)
DR7 0.00 dB -7.53 dB 2:10 04-Well All Right (Album Version)
DR9 0.00 dB -11.10 dB 4:47 05-Les grands voyageurs (Album Version)
DR8 0.00 dB -8.96 dB 2:14 06-Blue Eyes Crying In The Rain (Album Version)
DR6 0.00 dB -8.30 dB 2:59 07-Osez Joséphine (Album Version)
DR8 0.00 dB -9.35 dB 3:24 08-Kalabougie (Album Version)
DR7 0.00 dB -7.55 dB 4:10 09-She Belongs To Me (Album Version)
DR8 0.00 dB -10.23 dB 4:50 10-Madame rêve (Album Version)
DR7 0.00 dB -10.21 dB 4:49 11-Nights In White Satin (Album Version)
DR9 0.00 dB -11.01 dB 1:48 12-That's All Right Mama (Album Version)
DR9 0.00 dB -10.32 dB 3:22 13-Les amants d'un jour (Rough Mix Memphis)
DR10 0.00 dB -12.66 dB 3:19 14-Les Grands Voyageurs (Remix)
DR7 0.00 dB -8.53 dB 6:09 15-Osez Joséphine (Archive)
DR8 0.00 dB -10.07 dB 7:33 16-Kalabougie (Version Kalabouge)
––––––––––––––––––––––––––––––––––––––––

Number of tracks: 16
Official DR value: DR8

Samplerate: 96000 Hz
Channels: 2
Bits per sample: 24
Bitrate: 2758 kbps
Codec: FLAC
================================================================================


All thanks go to the original releaser
Sitemapيوتيوب – Youtube | Silikonschlauch Meterware Siliconschlauch Silikon Silicon Schlauch ab 1 €/m * | Ich hab noch NIE! 😂🔥 mit Leo Arian Chapter 32 | Moshidora | Fireball English Subbed